Любите сгущенку?

самые сливки шансона

самые сливки шансона

самые сливки шансона

Various Artists - Самые сливки шансона / 4 Жанр: шансон
Страна-производитель диска:
Год издания диска: 2003
Издатель (лейбл): ArturMuzic
Номер по каталогу: AM-338
Страна:
Аудио кодек: FLAC (*.flac)
Тип рипа: image+.cue
Битрейт аудио: lossless
Продолжительность: 79:04
Источник (релизер): Рип собственного диска
Наличие сканов в содержимом раздачи: да

[05:50] 01. гр.Кабриолет - Морелюбви
[03:52] 02. И.Слуцкий - Туда
[03:18] 03. С.Медяник и А.Смехова - Монах
[03:40] 04. М.Круг - Студентка
[04:15] 05. М.Шуфутинский - Медсестричка
[04:42] 06. И Кучин - У дорги рябина
[04:00] 07. Трофим - Ветер в голове
[04:38] 08. О.Алябин - Загуляла
[03:58] 09. Маршал - Мужской сезон
[03:43] 10. Г.Кричевский - Лодка
[03:30] 11. Л.Успенская - Лиза
[03:10] 12. Лесоповал - Ветка мимозы
[03:43] 13. В.Королев - Горькая калина
[03:37] 14. О.Орлова - Воробышек
[05:14] 15. А.Днепров - Я приглашаю в круг
[04:15] 16. А.Шапиро - Звуки аккордеона
[03:48] 17. Т.Повалий - Возвращаю
[05:47] 18. И.Аллегрова и А.Гарнизов - Грешная любовь
[03:55] 19. Ев.Кемеровский - Ерусалим
Дополнительная инфорация:
Самые сливки шансона - 4 - 12 MP3 -
http:///forum/viewtopic.php?t=3408644 Лог создания рипа Exact Audio Copy V1.0 beta 1 from 15. November 2010
Отчёт EAC об извлечении, выполненном 18. мая 2011, 15:11
Various / Самые сливки шансона
Дисковод: HL-DT-STDVD-RAM GH22NP21 Adapter: 0 ID: 0
Режим чтения : Достоверность
Использование точного потока : Да
Отключение кэша аудио : Да
Использование указателей C2 : Нет
Коррекция смещения при чтении : 102
Способность читать области Lead-in и Lead-out : Нет
Заполнение пропущенных сэмплов тишиной : Да
Удаление блоков с тишиной в начале и конце : Нет
При вычислениях CRC использовались нулевые сэмплы : Да
Интерфейс : Встроенный Win32-интерфейс для Win NT/2000
Выходной формат : Пользовательский кодировщик
Выбранный битрейт : 1024 kBit/s
Качество : Высокий
Добавление ID3-тэга : Нет
Утилита сжатия : C:\Program Files\Exact Audio Copy\FLAC\FLAC.EXE
Дополнительные параметры : -8 -V -T "ARTIST=%a" -T "TITLE=%t" -T "ALBUM=%g" -T "DATE=%y" -T "TRACKNUMBER=%n" -T "GENRE=%m" -T "COMMENT=%e" %j--picture="%i"%j %s -o %d
TOC извлечённого CD
Трек | Старт | Длительность | Начальный сектор | Конечный сектор
---------------------------------------------------------------------
1 | 0:00.00 | 5:50.04 | 0 | 26253
2 | 5:50.04 | 3:52.73 | 26254 | 43726
3 | 9:43.02 | 3:18.30 | 43727 | 58606
4 | 13:01.32 | 3:40.23 | 58607 | 75129
5 | 16:41.55 | 4:15.18 | 75130 | 94272
6 | 20:56.73 | 4:42.27 | 94273 | 115449
7 | 25:39.25 | 4:00.38 | 115450 | 133487
8 | 29:39.63 | 4:38.28 | 133488 | 154365
9 | 34:18.16 | 3:58.33 | 154366 | 172248
10 | 38:16.49 | 3:43.34 | 172249 | 189007
11 | 42:00.08 | 3:30.38 | 189008 | 204795
12 | 45:30.46 | 3:10.74 | 204796 | 219119
13 | 48:41.45 | 3:43.47 | 219120 | 235891
14 | 52:25.17 | 3:37.56 | 235892 | 252222
15 | 56:02.73 | 5:14.03 | 252223 | 275775
16 | 61:17.01 | 4:15.61 | 275776 | 294961
17 | 65:32.62 | 3:48.65 | 294962 | 312126
18 | 69:21.52 | 5:47.27 | 312127 | 338178
19 | 75:09.04 | 3:55.69 | 338179 | 355872
Характеристики диапазона извлечения и сообщения об ошибках
Выбранный диапазон
Имя файла D:\Раздачи на \Самые сливки шансона - 4 ,2003(lossless)\Various - Самые сливки шансона.wav
Пиковый уровень 100.0 %
0.1 X
Качество диапазона 100.0 %
CRC теста 34ACFF81
CRC копии 34ACFF81
Копирование... OK
Ошибок не произошло
AccurateRip: сводка
Трек 1 нет в базе данных
Трек 2 нет в базе данных
Трек 3 нет в базе данных
Трек 4 нет в базе данных
Трек 5 нет в базе данных
Трек 6 нет в базе данных
Трек 7 нет в базе данных
Трек 8 нет в базе данных
Трек 9 нет в базе данных
Трек 10 нет в базе данных
Трек 11 нет в базе данных
Трек 12 нет в базе данных
Трек 13 нет в базе данных
Трек 14 нет в базе данных
Трек 15 нет в базе данных
Трек 16 нет в базе данных
Трек 17 нет в базе данных
Трек 18 нет в базе данных
Трек 19 нет в базе данных
Ни одного трека нет в базе AccurateRip
Конец отчёта

Навигация

сгущенка    со сгущенкой    рецепт сгущенки    рецепты со сгущенкой    торт со сгущенкой    вареная сгущенка    орешки со сгущенкой    крем из сгущенки    орешки со сгущенкой рецепт    с вареной сгущенкой    торт из сгущенки    крем со сгущенкой    банка сгущенки    как варить сгущенку    сколько варить сгущенку    домашняя сгущенка    сгущенка сметана    крем из сгущенки и масла    торт со сгущенкой рецепт    крем для торта из сгущенки    наполеон со сгущенкой    сгущенка в домашних условиях    торт вареная сгущенка    печенье со сгущенкой    вареная сгущенка рецепт    тесто со сгущенкой    орешки с сгущенкой    сколько сгущенки в банке    орешки с вареной сгущенкой    торт с вареной сгущенкой    рецепты с вареной сгущенкой    вареная сгущенка крем    пирог со сгущенкой    торт наполеон сгущенка    сгущенка фото    медовый торт со сгущенкой    трубочки со сгущенкой    сколько варить сгущенку в банке    как варить сгущенку в банке    торт наполеон со сгущенкой    как сделать сгущенку    печенье из сгущенки    сметана со сгущенкой    крем со сгущенкой для торта    как приготовить сгущенку    коржи со сгущенкой    коржи из сгущенки    медовик со сгущенкой    торт сгущенка сметана    рецепт орешки с сгущенкой    печенье со сгущенкой рецепт    тесто для орешков со сгущенкой    бисквитный торт со сгущенкой    рецепт торта с сгущенкой    печенье орешки со сгущенкой    торт из коржей со сгущенкой    рецепт орешки с вареной сгущенкой    масло со сгущенкой    крем из сметаны и сгущенки    тест сгущенки    
Страницы:
1    2    3    4    5    6    7    8    9    10    11    12    13    14    15    16    17    18    19    20    21    22    23    24    25    26    27    28    29    30    31    32    33    34    35    36    37    38    39    40    41    42    43    44    45    46    47    48    49    50    51   

Новости сети